s.w.a.t.2017.s01e01.hdtv.x264 killers ettv good witch american gods s01 Lost in Space 2018 s01e07 more s12e13 The Walking Dead family guy Masterchef australia the expanse ethd The Flash younger etrg vikings masterchef australia s10e29 the handmaids tale Archer hindi Lucifer masterchef GOTHAM lethal weapon supergirl Humans S03E05 avengers infinity war 2018 jurassic world hereditary handmaid the handmaid s tale big bang theory español The Originals Humans expanse ready player one deadpool 2 westworld s02 into the badlands The Crossing homeland legion s02e11 FEAR THE WALKING DEAD colony etmovies dtone Carter love simon Colony S03E07 handmaids tale arrow español scorpion elementary six ettv the expanse s03e10 star trek discovery español Brooklyn Nine Nine Avengers Infinity War legion fgt tomb raider judge judy S22 ddr evo Condor the 100 westworld twitter windows 98 billions code black 
Warning! Use a VPN When Downloading Torrents!
Your IP Address is 172.81.144.194. Location is United States
Your Internet Provider is tracking your torrent activity! Hide your IP ADDRESS with a VPN!
We strongly recommend using ExpressVPN to anonymize your torrenting. 30 Day Money Back Guarantee!
Try it Now!
ETTV Recommended TV Shows
Marvels.Cloak.and.Dagger.S01E03.WEB.x264-TBS[ettv] torrent
Condor.S01E02.WEBRip.x264-PBS[ettv] torrent
Strange.Angel.S01E01.WEBRip.x264-TBS[ettv] torrent
Humans.S03E05.HDTV.x264-MTB[ettv] torrent

ETTV Recommended Xvid
Acrimony.2018.HDRip.XviD.AC3-EVO torrent
One.Small.Indiscretion.2018.HDRip.XviD.AC3-EVO torrent
Out.Of.The.Shadows.2018.HDRip.XviD.AC3-EVO torrent
Escape Plan 2 Hades.2018.DVDRip.XviD.AC3-EVO torrent

ETTV Recommended HD
Love.Simon.2018.Multi.UHD.2160p.Bluray.x265.HDR.DTS-HDMA.5.1-DTOne torrent
Fury.2014.Multi.UHD.Bluray.2160p.x265.HDR.Atmos.7.1-DTOne torrent
Set.It.Up.2018.1080p.NF.WEB-DL.DD5.1.x264-NTG[EtHD] torrent
Tomb.Raider.2018.Multi.UHD.2160p.Bluray.x265.HDR.Atmos.7.1-DTOne torrent

ETTV Recommended Cam
Jurassic World Fallen Kingdom 2018 720p HDCAM V.2 X264-24HD torrent
Oceans 8 2018.HD-TS.XViD.AC3-ETRG torrent
AVENGERS.INFINITY.WAR.2018.TS.H264.AAC2.0-DTOne torrent
Hereditary 2018 HDCAM ENG x264-SugarTits torrent

ETTV Recommended Foreign
October.2018.HDRip.XViD-ETRG torrent
Kaala.2018.DesipDVD Rip HEVC x265 AAC 2.0 -DTOne torrent
Badmaash (2018) 1080p - UntoucheD WEB HD - AVC - AAC - DTOne Exclusive.mp4 torrent
Baaghi 2 (2018) 1080p UntoucheD WEB HD - AVC - AAC - E-Subs - DTOne Exclusive torrent

Social

Loading...

Download Torrent "Robot Chicken S09E10 (1080p AMZN WEB-DL x265 HEVC 10bit AAC 5.1 Qman) [UTR]"

IMDB Details
Description:

N/A

Genre:

N/A

Download Torrent (Magnet)
Download Torrent (File)
Seeds: 10
Leechers: 0
Completed: 63 
Last Checked: 30-05-2018 16:28:00


Loading...
Details
Title:Robot Chicken S09E10 (1080p AMZN WEB-DL x265 HEVC 10bit AAC 5.1 Qman) [UTR]
Description:





Media Information
General
Format                                   : Matroska
Format version                           : Version 4 / Version 2
File size                                : 168 MiB
Duration                                 : 11 min 11 s
Overall bit rate                         : 2 101 kb/s
Encoded date                             : UTC 2018-05-29 04:32:52
Writing application                      : mkvmerge v23.0.0 ('The Bride Said No') 64-bit
Writing library                          : libebml v1.3.6 + libmatroska v1.4.9

Video
ID                                       : 1
Format                                   : HEVC
Format/Info                              : High Efficiency Video Coding
Format profile                           : Main [email protected]@Main
Codec ID                                 : V_MPEGH/ISO/HEVC
Duration                                 : 11 min 11 s
Bit rate                                 : 1 907 kb/s
Width                                    : 1 920 pixels
Height                                   : 1 080 pixels
Display aspect ratio                     : 16:9
Frame rate mode                          : Constant
Frame rate                               : 29.970 (30000/1001) FPS
Color space                              : YUV
Chroma subsampling                       : 4:2:0
Bit depth                                : 10 bits
Bits/(Pixel*Frame)                       : 0.031
Stream size                              : 153 MiB (91%)
Writing library                          : x265 2.8+3-450421921079:[Windows][MSVC 1914][64 bit] 10bit
Encoding settings                        : cpuid=1111039 / frame-threads=2 / numa-pools=4 / wpp / no-pmode / no-pme / no-psnr / no-ssim / log-level=2 / input-csp=1 / input-res=1920x1080 / interlace=0 / total-frames=20134 / level-idc=0 / high-tier=1 / uhd-bd=0 / ref=3 / no-allow-non-conformance / no-repeat-headers / annexb / no-aud / no-hrd / info / hash=0 / no-temporal-layers / open-gop / min-keyint=25 / keyint=250 / gop-lookahead=0 / bframes=4 / b-adapt=2 / b-pyramid / bframe-bias=0 / rc-lookahead=20 / lookahead-slices=6 / scenecut=40 / radl=0 / no-intra-refresh / ctu=64 / min-cu-size=8 / no-rect / no-amp / max-tu-size=32 / tu-inter-depth=1 / tu-intra-depth=1 / limit-tu=0 / rdoq-level=1 / dynamic-rd=0.00 / no-ssim-rd / signhide / no-tskip / nr-intra=0 / nr-inter=0 / no-constrained-intra / no-strong-intra-smoothing / max-merge=2 / limit-refs=3 / no-limit-modes / me=3 / subme=2 / merange=57 / temporal-mvp / weightp / no-weightb / no-analyze-src-pics / deblock=-1:-1 / sao / no-sao-non-deblock / rd=3 / no-early-skip / rskip / no-fast-intra / no-tskip-fast / no-cu-lossless / no-b-intra / no-splitrd-skip / rdpenalty=0 / psy-rd=0.35 / psy-rdoq=0.00 / no-rd-refine / no-lossless / cbqpoffs=0 / crqpoffs=0 / rc=crf / crf=24.0 / qcomp=0.60 / qpstep=4 / stats-write=0 / stats-read=0 / ipratio=1.40 / pbratio=1.30 / aq-mode=3 / aq-strength=1.00 / cutree / zone-count=0 / no-strict-cbr / qg-size=32 / no-rc-grain / qpmax=69 / qpmin=0 / no-const-vbv / sar=0 / overscan=0 / videoformat=5 / range=0 / colorprim=2 / transfer=2 / colormatrix=2 / chromaloc=0 / display-window=0 / max-cll=0,0 / min-luma=0 / max-luma=1023 / log2-max-poc-lsb=8 / vui-timing-info / vui-hrd-info / slices=1 / no-opt-qp-pps / no-opt-ref-list-length-pps / no-multi-pass-opt-rps / scenecut-bias=0.05 / no-opt-cu-delta-qp / no-aq-motion / no-hdr / no-hdr-opt / no-dhdr10-opt / no-idr-recovery-sei / analysis-reuse-level=5 / scale-factor=0 / refine-intra=0 / refine-inter=0 / refine-mv=0 / no-limit-sao / ctu-info=0 / no-lowpass-dct / refine-mv-type=0 / copy-pic=1 / max-ausize-factor=1.0 / no-dynamic-refine / no-single-sei
Language                                 : English
Default                                  : Yes
Forced                                   : No

Audio
ID                                       : 2
Format                                   : AAC
Format/Info                              : Advanced Audio Codec
Format profile                           : HE-AAC / LC
Codec ID                                 : A_AAC
Duration                                 : 11 min 11 s
Bit rate                                 : 192 kb/s
Channel(s)                               : 6 channels
Channel positions                        : Front: L C R, Side: L R, LFE
Sampling rate                            : 48.0 kHz / 24.0 kHz
Frame rate                               : 23.438 FPS (1024 spf)
Compression mode                         : Lossy
Delay relative to video                  : 34 ms
Stream size                              : 15.4 MiB (9%)
Language                                 : English
Default                                  : Yes
Forced                                   : No

Subtitle
ID                                       : 3
Format                                   : UTF-8
Codec ID                                 : S_TEXT/UTF8
Codec ID/Info                            : UTF-8 Plain Text
Duration                                 : 10 min 56 s
Bit rate                                 : 96 b/s
Count of elements                        : 253
Stream size                              : 7.74 KiB (0%)
Language                                 : English
Default                                  : Yes
Forced                                   : No

Source InformationRelease: 
Unknown Source/NO-GROUP



UTR wrote:

Note From UTR
We have no issue with individuals posting or re-uploading our torrents on a platform we aren't on. However, if this is something you'd like to do, please do so in a 'as-is' format. We ask that you do not create a new torrent, include all descriptions you see above including the UTR logo, tags, notes and screenshots. If you'd like to become a permanent poster on a website we don't post to, feel free to get in contact with a UniTeam member.

If possible please donate: BTC 1QA5fum5AyXvWzdVCkQzUNvw3Ef15fHRaR


Category:TV > HEVC/x265
Lang:English  English
Total Size:168 MB
Info Hash:79b14d0fbb9e315c418abd619102b9a10dced445
Added By:UTR
Date Added:30-05-2018 16:27:57

Files

File List: 
 File Size
Robot.Chicken.S09E10.Never.Forget.1080p.AMZN.WEB-DL.x265.10bit.AAC.5.1-[UTR].mkv168 MB



Loading...
Comments

There are currently no comments. Be the first one to write something !

Disclaimer: None of the files shown here are actually hosted or transmitted by this server. The links are provided solely by this site's users. The site moderation is also a service provided by the site's users. The administrator of this site (ettv.tv) cannot be held responsible for what its users post, or any other actions of its users. You may not use this site to distribute or download any material when you do not have the legal rights to do so. It is your own responsibility to adhere to these terms.